#TITLE:Dragon Fist1.4;
#SUBTITLE:Initiate;
#ARTIST:Jay Chou;
#TITLETRANSLIT:;
#SUBTITLETRANSLIT:;
#ARTISTTRANSLIT:;
#CREDIT:;
#BANNER:df-bn.png;
#BACKGROUND:;
#LYRICSPATH:;
#CDTITLE:cdtitle.png;
#MUSIC:longquan.mp3;
#OFFSET:-0.140;
#SAMPLESTART:64.576;
#SAMPLELENGTH:12.000;
#SELECTABLE:YES;
#BPMS:0.000=130.200;
#STOPS:;
#BGCHANGES:;
// cache tags:
#FIRSTBEAT:0.000;
#LASTBEAT:233.750;
#SONGFILENAME:Songs/Initiate/dragonfist1.4/longquan.sm;
#HASMUSIC:1;
#HASBANNER:1;
#MUSICLENGTH:108.120;
// end cache tags

//---------------dance-single - ----------------
#NOTES:
     dance-single:
     :
     Hard:
     11:
     1.000,1.000,1.000,1.000,1.000,682.000,350.000,111.000,0.000,155.000:
0001
0010
0000
0000
0000
0100
1000
0000
0010
0100
0000
0000
0000
0100
0011
0000
,
0001
0000
1101
0000
0001
0000
1101
0010
0001
0010
1101
0000
0001
0000
1201
0010
,
1000
0010
1000
0010
0001
0010
1001
0010
1000
0310
1002
0010
1000
0010
1100
0010
,
1000
0010
1000
0103
1000
0001
1102
0010
1000
0010
1000
0010
1000
0013
1120
0001
,
1000
0100
1000
0100
1000
0100
1001
0100
1000
0100
1002
0130
1000
0010
1100
0010
,
1000
0013
0100
0010
1000
0010
1201
0010
1000
0001
1000
0010
0001
0310
1201
0010
,
0001
0010
1000
0010
0001
0010
0011
1000
0001
0310
0102
0010
1000
0100
0110
1000
,
0100
0010
1003
0100
0001
1000
0201
1000
0001
0010
1000
0010
0001
1300
1010
0201
,
0010
1000
0001
0010
1000
1000
0011
1000
0010
1300
1002
0010
1000
0010
1100
0010
,
0100
0013
1000
0010
0010
1000
0201
1000
0010
1000
0001
0000
1000
0000
0302
0000
,
0000
0000
1010
0000
0000
0000
1013
1010
1010
1010
0110
1010
1001
1001
1020
0000
,
0100
0000
1031
0100
0001
0000
2010
0000
0100
0000
3011
0100
0001
0000
2100
0000
,
0001
0000
3011
0100
0001
1000
0201
0000
0010
0000
0311
0001
1000
0000
1020
0000
,
1000
0000
0001
0000
1130
0000
0001
0000
0010
0000
0000
0000
0102
0000
0000
0000
0010
0000
1000
0010
1103
0000
0001
0000
0010
0000
0000
0000
2100
0000
0000
0000
,
0110
0010
3111
0010
0101
0000
2010
0000
0100
0000
3011
0100
0001
0000
0012
0000
,
0100
0000
1013
0100
1000
0000
0120
0000
0001
0000
1130
0010
0001
0000
0021
0000
,
0100
0000
1130
0001
1000
0000
0210
0000
0001
0000
1310
1010
0101
0000
0201
0000
,
1000
0000
0311
1000
0010
0000
2001
0000
0010
0000
3101
0001
1001
0000
0012
0000
,
1000
0010
1103
0010
1000
0000
1000
0000
0010
0000
0100
0100
0100
1100
0011
0000
,
1100
0011
1100
0000
0011
0000
1001
1010
0110
1010
1001
0100
0011
1100
0011
0000
,
1100
0000
1100
0000
0011
0000
1100
0000
0011
1100
0011
0000
1100
0011
1100
0000
,
0011
0000
1100
0011
1010
0101
1010
0000
1010
1010
0000
1010
0101
1010
1010
0101
,
1010
0011
1100
1010
1001
0110
1010
0000
0101
0000
0011
0000
1100
1010
0011
1100
,
1010
0000
0011
0000
1001
0000
0110
1010
0110
1010
0110
0000
1010
0000
0101
1000
,
0011
0100
0011
0100
1010
0001
1100
0001
1010
0010
0101
1000
1010
0000
1100
1000
,
0011
0011
0011
0000
0011
0000
0011
0011
0011
0011
1010
0000
1010
0000
0101
0101
,
1010
0000
1000
1000
0000
0000
1100
1010
1001
1010
1100
0000
1100
0000
1100
0010
,
1001
1010
1100
1001
1010
1100
0011
1010
1100
0011
1100
0000
1100
0000
1001
0010
,
0110
1010
0011
1010
0110
1010
0011
1010
0110
1010
0011
0000
0011
0000
0101
1000
,
1010
0110
1010
1001
1010
0101
1100
0011
1010
1100
0011
0000
1100
0000
0011
0011
,
0011
0011
0011
0011
0011
0011
1100
0011
0011
0011
0011
0010
1110
0010
0011
1000
,
1100
0010
1011
0100
1100
0010
1011
0001
1100
0010
1110
1000
0011
0100
1011
0100
,
1010
0001
1110
1000
0011
0100
1011
0010
1001
1000
0111
0101
0101
0101
1101
0000
,
1011
0000
1011
0000
1110
0000
1101
0000
1101
0000
0111
0000
0111
0000
1110
0011
,
1011
0101
1110
1010
1101
0011
1201
0001
0010
0001
0001
0010
0010
0301
0112
0000
,
0010
0100
0010
0100
2013
0100
3020
0001
1000
0001
1230
0000
0320
0000
2131
0000
,
0010
0100
0001
0100
3012
0100
0023
0000
0001
1000
0132
0000
0203
0000
0312
0000
,
0010
1000
0100
1000
0123
1000
2031
0000
0100
0000
3211
0000
0320
0000
2131
0000
,
0011
0000
0101
0000
3112
0000
2113
0010
0110
0000
3211
0001
1001
0000
0321
0000
,
0001
1000
0100
1000
0132
1000
0023
0000
1000
0100
2130
0000
3020
0000
1231
0000
,
1000
0010
1000
0001
2310
0100
3020
0000
1000
0001
0132
0000
0023
0000
2131
0000
,
0100
0010
0000
0001
3120
0001
2130
0100
0010
0000
0010
0000
0000
0000
3101
0000
,
0011
0000
1100
0000
1001
0000
0000
1100
1001
1010
0110
1001
1010
0000
0020
0000
,
0000
0000
0000
0032
0000
0000
0110
0203
,
0000
1000
1001
0302
0000
1000
1010
0023
,
0000
1000
1001
0032
0000
0100
1100
2003
,
0000
0110
0110
3200
0000
1010
1010
0320
,
1001
1001
1001
2030
0011
0011
0011
3002
,
0110
0110
0110
0203
1010
1010
1010
2300
,
0011
0011
0011
3020
0101
0101
0101
0032
,
1100
0000
1100
0000
1100
0000
2013
0000
0011
0110
0011
0110
0011
0110
3211
0000
,
0010
0001
0010
1000
0321
1000
0230
0000
0010
0001
0312
0000
0203
0000
1320
0000
,
1000
0100
0100
0001
2130
0001
3200
0000
0001
0010
2301
0000
3002
0000
2013
0000
,
0010
0001
0000
0000
3210
0001
1320
1000
1000
0000
0132
0000
0203
0000
0321
0000
,
0101
0000
1100
0000
2031
0000
3021
0001
1001
0000
1032
0100
1010
0000
0213
0000
,
0001
0001
0001
1000
2301
0001
3200
0000
0010
0010
1320
0000
0230
0000
1302
0000
,
1000
0100
0100
0010
1023
0000
0230
1000
0001
1000
2310
0000
3200
0000
1320
0000
,
0100
0100
0000
0100
1230
0010
1320
0100
0001
0000
0002
0000
1000
0000
2033
0000
,
0101
0000
0011
0000
0110
0000
3011
1100
0000
0000
0000
0000
0000
0000
0000
0000
;

//---------------dance-single - ----------------
#NOTES:
     dance-single:
     :
     Easy:
     4:
     0.729,0.784,1.000,1.000,0.245,326.000,110.000,111.000,0.000,44.000:
0100
0010
0000
0000
0000
0100
0010
0000
0010
0100
0000
0000
0000
0010
0101
0000
,
0000
0000
1010
0000
0000
0000
1010
0101
0000
0000
1010
0000
0000
0000
2010
0000
,
0000
0000
0000
0000
0000
0000
0011
0000
0000
3000
0002
0000
0000
0000
1010
0000
,
0000
0000
0000
0003
0000
0000
1012
0000
0000
0000
0000
0000
0000
0003
1210
0000
,
0000
0000
0000
0000
0000
0000
0011
0000
0000
0000
0012
0300
0000
0000
1010
0000
,
0000
0003
0000
0000
0000
0000
2011
0000
0000
0000
0010
0000
0000
3000
2101
0000
,
0000
0000
0000
0000
0000
0000
0101
0000
0000
3000
0002
0000
0000
0000
1100
0000
,
0000
0000
0013
0000
0000
0000
2001
0000
0000
0000
0000
0000
0000
3000
2110
0000
,
0000
0000
0001
0000
0000
0000
0101
0000
0000
3000
0012
0000
0000
0000
1010
0000
,
0000
0003
0110
0000
0000
0000
2001
0000
0000
0000
0000
0000
0000
0000
3002
0000
,
0000
0000
0110
0000
0000
0000
0113
0010
0010
0010
0100
0010
0001
0001
0210
0000
,
0000
0311
0000
0120
0000
0131
0000
1020
,
0000
0131
0000
2001
0000
3101
0000
0210
,
0000
1310
0000
1002
0000
1013
0000
1020
,
0000
1031
0000
0120
0000
0131
0000
0102
,
0000
0113
0000
1200
0000
1310
0000
0201
,
0000
1310
0000
2100
0000
3011
0000
2001
,
0000
3101
0000
0021
0000
1031
0000
0102
,
0000
0000
1013
0000
0010
0000
0010
0000
0100
0000
1000
0001
1000
0001
0100
0000
,
0000
1010
0000
0011
0000
0011
0000
0101
,
0000
1010
0000
1010
0000
0101
0000
1010
,
0000
1010
0000
0110
0000
0110
0000
0110
,
0000
1010
0000
0110
0000
0101
0000
0101
,
0000
0101
0000
1100
0000
1100
0000
1001
,
0000
0101
0000
1010
0000
1001
0000
1010
,
0000
0101
0000
0101
0000
0110
0000
1001
,
0000
0000
0010
0010
0000
0000
1000
0100
0001
0100
0010
0000
0010
0000
1000
0100
,
0010
0001
0010
0100
1000
0100
0010
0001
0010
0100
1000
0000
0100
0000
0001
0100
,
1000
0010
0001
0100
1000
0100
0001
0010
1000
0100
0001
0000
0100
0000
1000
0010
,
0100
1000
0100
0010
0100
0001
0010
0001
0100
1000
0100
0000
1000
0000
0100
0001
,
1000
0100
0001
0001
1000
0100
1000
0001
0100
0001
0100
0001
1000
1000
1001
0000
,
0000
1010
0000
0101
0000
1100
0000
0101
,
0000
0000
1010
0000
0000
0000
0011
0000
0000
0000
0001
0100
0010
0000
1000
0000
,
0001
0000
0001
0000
1000
0000
1000
0000
0100
0000
0001
0000
1000
0000
1000
0100
,
0010
0001
0100
0010
1000
0001
2000
0001
0100
0001
0001
0100
0100
3010
0002
0000
,
0000
0000
0023
0230
0000
2300
3200
0320
,
0000
0000
0032
0203
0000
0302
2003
3002
,
0000
0000
0203
0320
0000
2030
3200
0320
,
0000
0000
0032
0023
0000
2030
0000
3200
,
0000
0000
0302
0203
0000
0320
0230
2300
,
0000
0000
3020
0230
0000
0302
0203
0320
,
0000
0000
0230
0320
0000
0000
0000
1031
,
0101
1010
0011
0000
0011
1100
0110
0200
,
0000
0000
0000
0302
0000
0000
1000
2003
,
0000
0000
0001
3002
0000
0000
0100
0203
,
0000
0000
0010
0302
0000
0000
0010
0023
,
0000
1100
0000
2030
0000
0110
0000
3200
,
0000
0011
0000
0320
0000
0101
0000
0032
,
0000
1100
0000
2003
0000
0110
0000
3020
,
0000
0101
0000
0230
0000
1001
0000
0302
,
0000
0000
1010
0000
0000
0000
0123
0000
1000
0100
0001
0100
1000
0100
2031
0000
,
0000
0000
3200
2300
0000
3002
2003
3200
,
0000
0000
0320
2030
0000
3020
0032
0023
,
0000
0000
2030
3200
0000
0302
2003
3200
,
0000
0000
0320
0230
0000
0302
0000
2003
,
0000
0000
3020
2030
0000
3200
2300
3002
,
0000
0000
0203
2300
0000
3020
2030
3200
,
0000
0000
2300
3200
0000
0002
0000
1323
,
0100
0000
0001
0000
0100
0000
0031
0010
0000
0000
0000
0000
0000
0000
0000
0000
;

//---------------dance-solo - ----------------
#NOTES:
     dance-solo:
     :
     Hard:
     11:
     1.000,1.000,1.000,1.000,1.000,679.000,405.000,125.000,0.000,202.000:
000110
011000
000000
000000
000000
010100
001001
000000
010100
010010
000000
000000
000000
001001
010100
000000
,
000100
000000
001101
000000
000100
000000
001101
010000
000000
000010
101100
000000
000100
000000
201001
000010
,
000100
001000
010000
001000
000100
000010
000011
000100
001000
310000
000201
001000
100000
010000
100001
010010
,
000001
010000
000001
100300
000001
010000
100210
010000
000010
010000
001000
010000
100000
000301
012100
000011
,
000100
000001
000010
000100
010000
100000
000110
000011
100000
010000
000120
013000
000100
010000
010100
011000
,
000100
001030
010000
001000
000100
001000
020110
001010
000100
000010
000100
001000
000010
031000
200011
001100
,
000010
001000
000100
001000
000010
001000
001010
000110
000010
301000
010020
001000
001000
010000
011000
001100
,
010000
001000
000130
010000
000010
000100
020010
000100
000010
001000
000100
001000
000010
030100
002110
100000
,
000100
010000
000001
100000
000100
000010
010001
100010
010000
003010
000012
100000
010000
000100
001010
010100
,
001000
100003
010000
001000
000100
000010
002001
110000
000100
100000
000001
000000
010000
003000
000002
000000
,
000000
000000
000110
000000
000000
000000
010113
010110
010110
010110
111000
011100
001110
000111
201011
000000
,
010000
000000
300011
011000
000001
000000
101020
000000
001000
000000
010031
101000
000001
000000
110200
000000
,
000010
000000
001310
010001
000010
000000
120010
000000
001000
000000
031010
100001
000100
000000
102001
000000
,
000100
000000
000001
000000
013100
000000
100010
000000
001000
000000
000000
000000
010120
000000
000000
000000
001000
000000
000100
100000
010031
000000
000010
000000
001000
000000
000000
000000
010210
000000
000000
000000
,
101000
000001
011310
100000
010010
000000
001210
000000
010000
000000
001310
010001
000010
000000
011020
000000
,
000001
000000
001130
110000
000001
000000
012010
000000
000010
000000
013100
001001
100000
000000
001102
000000
,
100000
000000
101003
000101
001000
000000
010002
000000
000100
000000
010013
001001
100100
000000
010200
000000
,
001000
000000
010310
001100
010000
000000
002100
000000
010000
000000
103100
000011
110000
000000
010200
000000
,
001000
000010
001301
010010
100000
000000
001000
000000
010000
000000
110000
011000
001100
000110
010001
000000
,
101000
000011
101000
000000
000101
000000
001010
010100
101000
010100
001010
000100
000011
001100
110000
000000
,
010100
000000
000101
000000
001010
000000
010100
000000
010001
100010
010001
000000
100010
010001
100010
000000
,
001010
000000
010100
001010
001100
010010
001100
000000
001100
001100
000000
001100
010010
001100
001100
010010
,
001100
100001
010010
001100
000101
101000
001100
000000
010010
000000
001010
000000
010010
100100
001001
010010
,
001100
000000
010010
000000
000011
000000
110000
001001
101000
001001
101000
000000
010100
000000
001010
000100
,
010001
001000
100001
001000
010010
000001
010010
000001
100010
000100
100001
010000
001010
000000
001010
000010
,
000101
100001
000101
000000
000101
000000
100100
000101
100100
100100
010010
000000
000110
000000
001001
001001
,
100010
000000
010010
010010
000000
000000
010010
100010
010001
100010
010010
000000
001010
000000
100001
100010
,
100100
100010
100001
100010
100100
100010
100001
100010
100100
100010
100001
000000
001010
000000
100001
010001
,
001001
010001
100001
010001
001001
010001
100001
010001
001001
010001
100001
000000
001010
000000
100001
010010
,
001100
010010
100001
010010
001100
010010
100001
010010
001100
010010
100001
000000
010100
000000
001100
010010
,
100001
010010
001100
010010
100001
010010
001100
010010
100001
010010
001100
010010
010010
010010
010010
000100
,
010100
001000
001110
010000
010100
001000
001110
000010
010100
001000
011100
000100
001010
010000
011100
100000
,
011000
000100
011001
100000
010010
001000
100101
010000
001001
001000
010101
001001
010100
100001
001110
000000
,
011100
000000
111000
000000
011100
000000
001110
000000
000111
000000
001110
000000
011100
000000
110100
000011
,
011100
100001
001110
010001
001110
010010
102001
000010
010000
000100
000010
000001
000010
003100
110002
000000
,
010000
100000
010000
100000
010023
100000
000032
000000
001000
010000
001003
000000
020000
000000
030210
000000
,
001000
010000
000010
010000
001320
010000
002030
000000
000010
000100
013020
000000
020030
000000
031020
000000
,
001000
000100
010000
000000
012030
000100
003210
100000
000001
000000
021310
000000
032000
000000
013210
000000
,
001001
000000
010010
000000
101320
000000
011230
100000
011000
000000
021310
000001
000110
000000
032010
000000
,
000010
000100
010000
000100
013020
000100
002030
000000
000100
010000
013200
000000
002300
000000
000011
000000
,
000010
000100
010000
000100
003021
100000
000230
000000
100000
010000
001302
000000
000203
000000
101320
000000
,
010000
001000
000000
010000
001230
100000
001320
010000
000100
000000
020001
000000
000000
030000
100031
000000
,
001100
000000
010010
000000
100001
000000
000000
110000
001100
000011
001100
110000
001100
000000
200200
000000
,
000000
000000
000000
300322
000000
000000
110000
220033
,
000000
000100
000110
330022
000000
000100
001100
202033
,
000000
000100
000110
303022
000000
010000
010100
200233
,
000000
011000
011000
320302
000000
001100
001100
232003
,
000110
000110
000110
303202
001010
001010
001010
022303
,
100001
100001
100001
233020
011000
011000
011000
302032
,
010100
010100
010100
023023
100100
100100
100100
030232
,
101000
000000
101000
000000
101000
000000
012303
000000
110000
010100
000110
000011
000110
010100
113002
000000
,
010000
000100
010000
001000
020103
001000
030002
000000
000010
100000
001203
000000
200300
000000
302100
000000
,
000100
010000
010000
000010
013200
000010
020300
000000
000010
001000
030210
000000
000320
000000
001230
000000
,
001000
000010
000000
000000
021300
000010
032100
000100
000100
000000
013020
000000
020030
000000
132010
000000
,
010010
000000
000101
000000
103200
000000
002310
000001
000110
000000
003120
100000
001100
000000
021030
000000
,
000010
000100
000001
100000
030210
000001
000320
000000
010000
100000
002130
000000
003200
000000
100302
000000
,
000010
001000
001000
000100
000213
000000
002300
000010
000001
000010
003120
000000
002030
000000
003210
000000
,
001000
100000
000000
000001
002310
010000
003210
100000
010000
000000
000002
000000
000010
000000
010323
000000
,
101000
000000
001100
000000
000101
000000
001130
110000
000000
000000
000000
000000
000000
000000
000000
000000
;

//---------------dance-single - ----------------
#NOTES:
     dance-single:
     :
     Medium:
     9:
     1.000,1.000,1.000,1.000,0.842,626.000,180.000,111.000,0.000,132.000:
0100
0010
0000
0000
0000
0100
1000
0000
0100
0010
0000
0000
0000
0100
1001
0000
,
0001
0000
1101
0000
0001
0000
1101
0010
0001
0010
1101
0000
0001
0000
1201
0000
,
1000
0000
1000
0000
0001
0000
1001
0000
1000
0300
1002
0000
1000
0000
1100
0000
,
1000
0000
1000
0003
1000
0000
1102
0000
1000
0000
1000
0000
1000
0003
1120
0000
,
1000
0000
1000
0000
1000
0000
1001
0000
1000
0000
1002
0030
1000
0000
1100
0000
,
1000
0003
0100
0000
1000
0000
1201
0000
1000
0000
1000
0000
0001
0300
1201
0000
,
0001
0000
1000
0000
0001
0000
0011
0000
1000
0300
0102
0000
0010
0000
0110
0000
,
0100
0000
1003
0000
0001
0000
0201
0000
0001
0000
1000
0000
0001
0300
1210
0000
,
0010
0000
0001
0000
1000
0000
0011
0000
0010
0300
1002
0000
1000
0000
1100
0010
,
0100
0013
1000
0010
0010
1000
0201
1000
0010
1000
0001
0000
1000
0000
0302
0000
,
0000
0000
1010
0000
0000
0000
1003
0010
1000
0010
0100
1000
0001
1000
0021
0000
,
0100
0000
1031
0100
0001
0000
2010
0000
0100
0000
3011
0100
0001
0000
2100
0000
,
0001
0000
3011
0100
0001
1000
0201
0000
0010
0000
0311
0001
1000
0000
1020
0000
,
1000
0000
0001
0000
1130
0000
0001
0000
0010
0000
0000
0000
0102
0000
0000
0000
0010
0000
1000
0010
1103
0000
0001
0000
0010
0000
0000
0000
2100
0000
0000
0000
,
0110
0010
3101
0010
0101
0000
2010
0000
0100
0000
3011
0100
0001
0000
0012
0000
,
0100
0000
1013
0100
1000
0000
0120
0000
0001
0000
1130
0010
0001
0000
0021
0000
,
0100
0000
1130
0001
1000
0000
0210
0000
0001
0000
1300
1000
0101
0000
0201
0000
,
1000
0000
0311
1000
0010
0000
2001
0000
0010
0000
3101
0001
1001
0000
0012
0000
,
1000
0010
1103
0010
1000
0000
1000
0000
0010
0000
0100
0100
0100
1000
0001
0000
,
1000
0001
1000
0000
0010
0000
1000
0010
0100
0010
0001
0100
0010
0100
0010
0000
,
0100
0000
1000
0000
0001
0000
1000
0000
0001
0100
0010
0000
1000
0010
1000
0000
,
0010
0000
1000
0010
1000
0001
0010
0000
0010
0100
0000
0010
0100
1000
0010
0001
,
1000
0010
1000
0010
0001
0100
1000
0000
0001
0000
0010
0000
1000
0001
0010
0100
,
1000
0000
0001
0000
0001
0000
0001
0010
0100
1000
0010
0000
0010
0000
0001
1000
,
0001
0100
0010
0100
1000
0001
0100
0001
0010
0100
0001
1000
1000
0000
1000
1000
,
0010
0100
0010
0000
0001
0000
0001
1000
0010
0100
0010
0000
0010
0000
0001
0100
,
1000
0000
1000
1000
0000
0000
0100
0010
0001
0010
0100
0000
0100
0000
1000
0010
,
1000
0010
0100
0001
0010
0100
0001
1000
1000
0001
1000
0000
1100
0000
1000
0010
,
0100
1000
0001
0010
0100
1000
0001
1000
0100
0010
0100
0000
1001
0000
0001
1000
,
0010
0100
0010
0001
1000
0100
1000
0001
1000
1000
0010
0000
1000
0000
0010
0001
,
0010
0001
0010
0001
0010
0001
1000
0010
0001
0010
0001
0010
1100
0010
0101
1000
,
1000
0010
1001
0100
1000
0010
1010
0001
1000
0010
0110
1000
0010
0100
1001
0100
,
1000
0001
0110
1000
0001
0100
1010
0010
0100
1000
0101
0001
0100
0001
1100
0000
,
1001
0000
0011
0000
1010
0000
1001
0000
1100
0000
0101
0000
0101
0000
1010
0001
,
1000
0001
1010
0100
0001
0010
1201
0010
1000
0001
0001
0010
0010
0301
1002
0000
,
0010
0100
0010
0100
2013
0100
3020
0001
1000
0001
1230
0000
0320
0000
2131
0000
,
0010
0100
0001
0100
3012
0100
0023
0000
0001
1000
0132
0000
0203
0000
0312
0000
,
0010
1000
0100
1000
0123
1000
2031
0000
0100
0000
3211
0000
0320
0000
2131
0000
,
0011
0000
0101
0000
3112
0000
2113
0010
0110
0000
3211
0001
1001
0000
0321
0000
,
0001
1000
0100
1000
0132
1000
0023
0000
1000
0100
2130
0000
3020
0000
1231
0000
,
1000
0010
1000
0001
2310
0100
3020
0000
1000
0001
0132
0000
0023
0000
2131
0000
,
0100
0010
0000
0001
3120
0001
2130
0100
0010
0000
0010
0000
0000
0000
3101
0000
,
0011
0000
1100
0000
1001
0000
0000
0100
0001
1000
0100
0001
0010
0000
0020
0000
,
0000
0000
0000
0032
0000
0000
0110
0203
,
0000
1000
1001
0302
0000
1000
1010
0023
,
0000
1000
1001
0032
0000
0100
1100
2003
,
0000
0110
0110
3200
0000
1010
1010
0320
,
1001
1001
1001
2030
0011
0011
0011
3002
,
0110
0110
0110
0203
1010
1010
1010
2300
,
0011
0011
0011
3020
0101
0101
0101
0032
,
1100
0000
1100
0000
1100
0000
2013
0000
0011
0110
0011
0110
0011
0110
3211
0000
,
0010
0001
0010
1000
0321
1000
0230
0000
0010
0001
0312
0000
0203
0000
1320
0000
,
1000
0100
0100
0001
2130
0001
3200
0000
0001
0010
2301
0000
3002
0000
2013
0000
,
0010
0001
0000
0000
3210
0001
1320
1000
1000
0000
0132
0000
0203
0000
0321
0000
,
0101
0000
1100
0000
2031
0000
3021
0001
1001
0000
1032
0100
1010
0000
0213
0000
,
0001
0001
0001
1000
2301
0001
3200
0000
0010
0010
1320
0000
0230
0000
1302
0000
,
1000
0100
0100
0010
1023
0000
0230
1000
0001
1000
2310
0000
3200
0000
1320
0000
,
0100
0100
0000
0100
1230
0010
1320
0100
0001
0000
0002
0000
1000
0000
2033
0000
,
0101
0000
0011
0000
0110
0000
3011
1100
0000
0000
0000
0000
0000
0000
0000
0000
;
